找回密碼
 注冊

QQ登錄

只需一步,快速開始

索尼 BRAVIA OLED A1 4K HDR 演示片 - Food Fizzle (HEVC 60fps 10bit)[2160P/MP4/...

5616
回復
714861
查看
  [復制鏈接]
1#
來源:4K視頻下載 2017-9-21 06:36:19 回帖獎勵 |閱讀模式
索尼 BRAVIA OLED A1 4K HDR 演示片 - Food Fizzle (HEVC 60fps 10bit)[2160P/MP4/726MB]
(OLED電視專用4K演示片)
索尼 BRAVIA OLED A1 4K HDR 演示片 - Food Fizzle (HEVC 60fps 10bit)[2160P/MP4/... 索尼 BRAVIA OLED A1 4K HDR 演示片 - Food Fizzle (HEVC 60fps 10bit)[2160P/MP4/... 索尼 BRAVIA OLED A1 4K HDR 演示片 - Food Fizzle (HEVC 60fps 10bit)[2160P/MP4/... 索尼 BRAVIA OLED A1 4K HDR 演示片 - Food Fizzle (HEVC 60fps 10bit)[2160P/MP4/... 索尼 BRAVIA OLED A1 4K HDR 演示片 - Food Fizzle (HEVC 60fps 10bit)[2160P/MP4/... 索尼 BRAVIA OLED A1 4K HDR 演示片 - Food Fizzle (HEVC 60fps 10bit)[2160P/MP4/... 索尼 BRAVIA OLED A1 4K HDR 演示片 - Food Fizzle (HEVC 60fps 10bit)[2160P/MP4/... 索尼 BRAVIA OLED A1 4K HDR 演示片 - Food Fizzle (HEVC 60fps 10bit)[2160P/MP4/... 索尼 BRAVIA OLED A1 4K HDR 演示片 - Food Fizzle (HEVC 60fps 10bit)[2160P/MP4/... 索尼 BRAVIA OLED A1 4K HDR 演示片 - Food Fizzle (HEVC 60fps 10bit)[2160P/MP4/... 索尼 BRAVIA OLED A1 4K HDR 演示片 - Food Fizzle (HEVC 60fps 10bit)[2160P/MP4/... 索尼 BRAVIA OLED A1 4K HDR 演示片 - Food Fizzle (HEVC 60fps 10bit)[2160P/MP4/... 索尼 BRAVIA OLED A1 4K HDR 演示片 - Food Fizzle (HEVC 60fps 10bit)[2160P/MP4/...

General
Complete name : SONY.BRAVIA.OLED.4K.HDR.DEMO_Food .Fizzle.mp4
Format : MPEG-4
Format profile : Base Media / Version 2
Codec ID : mp42 (mp42/iso4)
File size : 726 MiB
Duration : 1 min 22 s
Overall bit rate : 74.2 Mbps
Encoded date : UTC 2017-02-27 02:06:58
Tagged date : UTC 2017-02-27 02:06:58

Video
ID : 1
Format : HEVC
Format/Info : High Efficiency Video Coding
Format profile : Main [email protected]@High
Codec ID : hvc1
Codec ID/Info : High Efficiency Video Coding
Duration : 1 min 22 s
Bit rate : 74.0 Mbps
Width : 3840 pixels
Height : 2160 pixels
Display aspect ratio : 16:9
Frame rate mode : Constant
Frame rate : 59.940 (60000/1001) FPS
Color space : YUV
Chroma subsampling : 4:2:0 (Type 2)
Bit depth : 10 bits
Bits/(Pixel*Frame) : 0.149
Stream size : 725 MiB (100%)
Encoded date : UTC 2017-02-27 02:06:58
Tagged date : UTC 2017-02-27 02:06:58
Color range : Limited
Color primaries : BT.2020
Transfer characteristics : SMPTE ST 2084
Matrix coefficients : BT.2020 non-constant
Mastering display color primar : R: x=1.000000 y=1.000000, G: x=1.000000 y=1.000000, B: x=1.000000 y=1.000000, White point: x=1.000000 y=1.000000
Mastering display luminance : min: 0.1000 cd/m2, max: 0.5000 cd/m2

Audio
ID : 2
Format : AAC
Format/Info : Advanced Audio Codec
Format profile : LC
Codec ID : 40
Duration : 1 min 22 s
Bit rate mode : Constant
Bit rate : 192 kbps
Channel(s) : 2 channels
Channel positions : Front: L R
Sampling rate : 48.0 kHz
Frame rate : 46.875 FPS (1024 SPF)
Compression mode : Lossy
Stream size : 1.88 MiB (0%)
Language : English
Encoded date : UTC 2017-02-27 02:06:58
Tagged date : UTC 2017-02-27 02:06:58
Demo Ultra HD & HDR (HDR10)by Sony(for Sony OLED A1 Demo)
HDR ! So your TV has to be able to play this format !
OLED
4K HDR電視上觀看才能體驗最佳效果!
播放器 : Potplaye(2017版本)

MP4百度云盤
游客,如果您要查看本帖隱藏內容請回復


分享到:  QQ好友和群QQ好友和群
2#
2017-9-21 07:11:17
支持樓主,4K123有你更精彩!
TV應用下載
3#
2017-9-21 07:18:22
支持樓主,4K123有你更精彩!
4#
2017-9-21 07:42:36
很不錯的。。。。。。。。。。。。。。
5#
2017-9-21 07:47:57
太好啦!謝謝版主的無私分享!
6#
2017-9-21 08:07:56
看著好有胃口,謝謝分享。
7#
2017-9-21 08:10:03
謝謝分享。
8#
2017-9-21 08:12:36
感謝樓主分享!
9#
2017-9-21 08:13:14
支持樓主,4K123有你更精彩!
10#
2017-9-21 08:19:21
謝謝分享。
您需要登錄后才可以回帖 登錄 | 注冊
當貝
北京单场sp值开奖