找回密碼
 注冊

QQ登錄

只需一步,快速開始

[4K高清短片]中國西安 - 城墻 雁塔[2160P/MP4/530MB]

5634
回復
482069
查看
  [復制鏈接]
1#
來源:4K視頻下載 2016-8-11 08:06:20 回帖獎勵 |閱讀模式
[4K高清短片]中國西安 - 城墻 雁塔[2160P/MP4/530MB]
[4K高清短片]中國西安 - 城墻 雁塔[2160P/MP4/530MB] [4K高清短片]中國西安 - 城墻 雁塔[2160P/MP4/530MB] [4K高清短片]中國西安 - 城墻 雁塔[2160P/MP4/530MB] [4K高清短片]中國西安 - 城墻 雁塔[2160P/MP4/530MB] [4K高清短片]中國西安 - 城墻 雁塔[2160P/MP4/530MB] [4K高清短片]中國西安 - 城墻 雁塔[2160P/MP4/530MB] [4K高清短片]中國西安 - 城墻 雁塔[2160P/MP4/530MB] [4K高清短片]中國西安 - 城墻 雁塔[2160P/MP4/530MB] [4K高清短片]中國西安 - 城墻 雁塔[2160P/MP4/530MB] [4K高清短片]中國西安 - 城墻 雁塔[2160P/MP4/530MB] [4K高清短片]中國西安 - 城墻 雁塔[2160P/MP4/530MB] [4K高清短片]中國西安 - 城墻 雁塔[2160P/MP4/530MB] [4K高清短片]中國西安 - 城墻 雁塔[2160P/MP4/530MB] [4K高清短片]中國西安 - 城墻 雁塔[2160P/MP4/530MB] [4K高清短片]中國西安 - 城墻 雁塔[2160P/MP4/530MB] [4K高清短片]中國西安 - 城墻 雁塔[2160P/MP4/530MB]

General
Complete name : Xi'an, China- City Walls & Goose Pagodas in 4K (Ultra HD).mp4
Format : MPEG-4
Format profile : Base Media
Codec ID : dash (isom/iso2/avc1/mp41)
File size : 530 MiB
Duration : 4 min
Overall bit rate : 16.7 Mbps
Writing application : Lavf56.25.101

Video
ID : 1
Format : AVC
Format/Info : Advanced Video Codec
Format profile : [email protected]
Format settings, CABAC : No
Format settings, ReFrames : 2 frames
Codec ID : avc1
Codec ID/Info : Advanced Video Coding
Duration : 4 min
Bit rate : 16.5 Mbps
Width : 3840 pixels
Height : 2160 pixels
Display aspect ratio : 16:9
Frame rate mode : Constant
Frame rate : 29.970 (30000/1001) FPS
Color space : YUV
Chroma subsampling : 4:2:0
Bit depth : 8 bits
Scan type : Progressive
Bits/(Pixel*Frame) : 0.067
Stream size : 529 MiB (99%)
Color range : Limited
Color primaries : BT.709
Transfer characteristics : BT.709
Matrix coefficients : BT.709

Audio
ID : 2
Format : AAC
Format/Info : Advanced Audio Codec
Mode extension : LC
Codec ID : 40
Duration : 4 min
Bit rate mode : Constant
Bit rate : 126 kbps  
Channel(s) : 2 channels
Channel positions : Front: L R
Sampling rate : 44.1 KHz
Frame rate : 43.066 FPS (1024 spf)
Compression mode : Lossy
Stream size : 4.02 MiB (1%)
Default : Yes
Altternate group : 1

百度云盤
游客,如果您要查看本帖隱藏內容請回復



分享到:  QQ好友和群QQ好友和群
2#
2016-8-11 08:10:03
支持樓主,4K123有你更精彩!
TV應用下載
3#
2016-8-11 08:32:07
果斷馬克mark
4#
2016-8-11 08:35:20
看起來好像不錯的樣子
5#
2016-8-11 08:37:23
支持樓主,4K123有你更精彩!
6#
2016-8-11 08:38:24
[4K高清短片]中國西安 - 城墻 鵝寶塔我家4K電視又可以炫機了
7#
2016-8-11 08:47:02
古建筑不錯,可惜被現代建筑包圍太多!!!
8#
2016-8-11 08:54:57
頂頂頂頂頂頂頂頂頂頂頂頂頂頂
9#
2016-8-11 09:06:30
支持樓主,4K123有你更精彩!
10#
2016-8-11 09:13:10
支持樓主,4K123有你更精彩!
您需要登錄后才可以回帖 登錄 | 注冊
當貝
北京单场sp值开奖